21. JANUAR 2019

Menu

Informationen zu einem Video (MP4, AVI, MKV, …) anzeigen lassen

Dies funktioniert am besten mit dem avprobe Befehl. Dieser zeigt alle Spuren/Streams mit deren Attributen wie folgt an:

Input #0, avi, from 'alice_in_wonderland[idx].avi':
  Metadata:
    encoder         : VirtualDubMod 1.5.10.2 (build 2540/release)
  Duration: 01:18:16.86, start: 0.000000, bitrate: 2853 kb/s
    Stream #0:0: Video: mpeg4 (Advanced Simple Profile) (XVID / 0x44495658), yuv420p, 672x368 [SAR 1:1 DAR 42:23], 2455 kb/s, 23.98 fps, 23.98 tbr, 23.98 tbn, 23.98 tbc
    Stream #0:1: Audio: mp3 (U[0][0][0] / 0x0055), 44100 Hz, stereo, s16p, 192 kb/s
    Stream #0:2: Audio: ac3 ([0] [0][0] / 0x2000), 48000 Hz, stereo, fltp, 192 kb/s


Keywords: avprobe, avconv
Dokumenten-ID: kb/7dd6374a-bc1b-4b7b-bdb3-c2757c520f85



Startseite - Keywords - Sitemap - Impressum